File-Portal

Wardruna скачать торрент Flac

Рейтинг: 4.7/5.0 (157 проголосовавших)

Категория: Торрент-файлы

Описание

Wardruna - Runaljod - gap var Ginnunga (2009) FLAC, Lossless - Neofolk

Wardruna - Runaljod - gap var Ginnunga (2009)

Год: 2009
Жанр: Neofolk / Ambient
Продолжительность: 00:51:56

Кодек: FLAC
Битрейт аудио: "Lossless"

Трек лист:
1. Ar Var Alda 2:19
2. Hagal 7:40
3. Bjarkan 5:53
4. Loyndomsriss 3:05
5. Heimta Thurs 4:18
6. Thurs 1:15
7. Jara 5:01
8. Laukr 4:05
9. Kauna 2:34
10. Algir - Stien Klarnar 4:17
11. Algir - Tognatale 5:39
12. Dagr 5:38

релиз What.CD от fuzzfolk. Обложки взяты из инета.

Превью: myspace. lastfm
Состав группы:
Kvitrafn (Einar Selvik) - Vocals, All Instruments, Samples, Lyrics (Gorgoroth)
Gaahl (Kristian Eivind Espedal) - Vocals (Gorgoroth)
Lindy Fay Hella - Vocals
Hallvard Kleiveland - Hardanger Fiddle


Exact Audio Copy V0.99 prebeta 5 from 4. May 2009
EAC extraction logfile from 5. October 2009, 17:59
Wardruna / Runaljod - Gap Var Ginnunga
Used drive : SAMSUNG CDRW/DVD SN-324S Adapter: 1 ID: 0
Read mode : Secure
Utilize accurate stream : Yes
Defeat audio cache : Yes
Make use of C2 pointers : No
Read offset correction : 6
Overread into Lead-In and Lead-Out : No
Fill up missing offset samples with silence : Yes
Delete leading and trailing silent blocks : No
Null samples used in CRC calculations : Yes
Used interface : Installed external ASPI interface
Gap handling : Appended to previous track
Used output format : User Defined Encoder
Selected bitrate : 768 kBit/s
Quality : High
Add ID3 tag : No
Command line compressor : C:\Programfiler\Exact Audio Copy\FLAC\FLAC.EXE
Additional command line options : -V -8 -T "artist=%a" -T "title=%t" -T "album=%g" -T "date=%y" -T "tracknumber=%n" -T "genre=%m" %s
TOC of the extracted CD
Track | Start | Length | Start sector | End sector
---------------------------------------------------------
1 | 0:00.00 | 2:19.24 | 0 | 10448
2 | 2:19.24 | 7:40.03 | 10449 | 44951
3 | 9:59.27 | 5:53.15 | 44952 | 71441
4 | 15:52.42 | 3:15.00 | 71442 | 86066
5 | 19:07.42 | 4:18.30 | 86067 | 105446
6 | 23:25.72 | 1:15.62 | 105447 | 111133
7 | 24:41.59 | 5:01.58 | 111134 | 133766
8 | 29:43.42 | 4:05.20 | 133767 | 152161
9 | 33:48.62 | 2:34.10 | 152162 | 163721
10 | 36:22.72 | 4:17.22 | 163722 | 183018
11 | 40:40.19 | 5:39.23 | 183019 | 208466
12 | 46:19.42 | 5:38.15 | 208467 | 233831
Track 1
Filename C:\EAC rips\Wardruna - 2009 - Runaljod - Gap Var Ginnunga\01 - Ár Var Alda.wav
Pre-gap length 0:00:02.00
Peak level 99.8 %
Track quality 100.0 %
Test CRC 33A4575F
Copy CRC 33A4575F
Accurately ripped (confidence 1) [7101618F]
Copy OK
Track 2
Filename C:\EAC rips\Wardruna - 2009 - Runaljod - Gap Var Ginnunga\02 - Hagal.wav
Peak level 99.8 %
Track quality 100.0 %
Test CRC BCDB8A66
Copy CRC BCDB8A66
Accurately ripped (confidence 1) [DFD86DA0]
Copy OK
Track 3
Filename C:\EAC rips\Wardruna - 2009 - Runaljod - Gap Var Ginnunga\03 - Bjarkan.wav
Peak level 99.8 %
Track quality 100.0 %
Test CRC 890B5418
Copy CRC 890B5418
Accurately ripped (confidence 1) [6124F816]
Copy OK
Track 4
Filename C:\EAC rips\Wardruna - 2009 - Runaljod - Gap Var Ginnunga\04 - Løyndomsriss.wav
Peak level 99.8 %
Track quality 100.0 %
Test CRC 08B1A928
Copy CRC 08B1A928
Accurately ripped (confidence 1) [F1760927]
Copy OK
Track 5
Filename C:\EAC rips\Wardruna - 2009 - Runaljod - Gap Var Ginnunga\05 - Heimta Thurs.wav
Peak level 99.8 %
Track quality 100.0 %
Test CRC 00023ED7
Copy CRC 00023ED7
Accurately ripped (confidence 1) [08FDC165]
Copy OK
Track 6
Filename C:\EAC rips\Wardruna - 2009 - Runaljod - Gap Var Ginnunga\06 - Thurs.wav
Peak level 99.8 %
Track quality 100.0 %
Test CRC F408BA19
Copy CRC F408BA19
Accurately ripped (confidence 1) [B7D8A702]
Copy OK
Track 7
Filename C:\EAC rips\Wardruna - 2009 - Runaljod - Gap Var Ginnunga\07 - Jara.wav
Peak level 99.8 %
Track quality 100.0 %
Test CRC 51E4E51D
Copy CRC 51E4E51D
Accurately ripped (confidence 1) [CB782E27]
Copy OK
Track 8
Filename C:\EAC rips\Wardruna - 2009 - Runaljod - Gap Var Ginnunga\08 - Laukr.wav
Peak level 99.8 %
Track quality 100.0 %
Test CRC 71E2F8B1
Copy CRC 71E2F8B1
Accurately ripped (confidence 1) [EC1900D8]
Copy OK
Track 9
Filename C:\EAC rips\Wardruna - 2009 - Runaljod - Gap Var Ginnunga\09 - Kauna.wav
Peak level 99.8 %
Track quality 100.0 %
Test CRC EB9B9DD6
Copy CRC EB9B9DD6
Accurately ripped (confidence 1) [BCDBF668]
Copy OK
Track 10
Filename C:\EAC rips\Wardruna - 2009 - Runaljod - Gap Var Ginnunga\10 - Algir - Stien Klarnar.wav
Peak level 99.8 %
Track quality 100.0 %
Test CRC 45AC3AEE
Copy CRC 45AC3AEE
Accurately ripped (confidence 1) [6D3BB112]
Copy OK
Track 11
Filename C:\EAC rips\Wardruna - 2009 - Runaljod - Gap Var Ginnunga\11 - Algir - Tognatale.wav
Peak level 99.8 %
Track quality 100.0 %
Test CRC 0847AFC1
Copy CRC 0847AFC1
Accurately ripped (confidence 1) [2BD57525]
Copy OK
Track 12
Filename C:\EAC rips\Wardruna - 2009 - Runaljod - Gap Var Ginnunga\12 - Dagr.wav
Peak level 99.8 %
Track quality 100.0 %
Test CRC FF5F51D5
Copy CRC FF5F51D5
Accurately ripped (confidence 1) [09695C6A]
Copy OK
All tracks accurately ripped
No errors occurred
End of status report

DON'T MODIFY THIS FILE

PERFORMER: auCDtect Task Manager, ver. 1.5.1RC6 build 1.5.1.7
Copyright (c) 2008-2010 y-soft. All rights reserved
http://y-soft.org

ANALYZER: auCDtect: CD records authenticity detector, version 0.8.2
Copyright (c) 2004 Oleg Berngardt. All rights reserved.
Copyright (c) 2004 Alexander Djourik. All rights reserved.

FILE: 12 - Dagr.flac
Size: 33970906 Hash: 36995C37DDF97E509B7175EC170719DA Accuracy: -m0
Conclusion: CDDA 100%
Signature: A7EE9C2167C0FBFABEDFE6F46AEA9BFE9050D3DD
FILE: 11 - Algir - Tognatale.flac
Size: 35771735 Hash: D42BD6CFB6FBD55B4B5DEF1E36184DAF Accuracy: -m0
Conclusion: CDDA 100%
Signature: 889949F2221890C02A398EC330349619D600A032
FILE: 10 - Algir - Stien Klarnar.flac
Size: 27728242 Hash: BE824DE500D166D113422954B34D4DBE Accuracy: -m0
Conclusion: CDDA 100%
Signature: 86E2AA5AEE29C8EECCBD56A62B5BDC0EC66CCBA1
FILE: 09 - Kauna.flac
Size: 15652950 Hash: BAD9987F155E5C0A044CC43CD3720A17 Accuracy: -m0
Conclusion: CDDA 100%
Signature: 90A1DA7B11392F935CFAEF315CB91DBCFE1F2885
FILE: 08 - Laukr.flac
Size: 25874603 Hash: 0E70E89B4658575ADBF6782D34AB7CC2 Accuracy: -m0
Conclusion: CDDA 100%
Signature: 0B9D5AECC231B7F8EC87C168CC889064CF513B09
FILE: 07 - Jara.flac
Size: 33338921 Hash: B78CB74830893CD5E1657F113678AF6D Accuracy: -m0
Conclusion: CDDA 100%
Signature: EB1BCB6EF2E42A3A06A1C10262258C00B0AE8845
FILE: 06 - Thurs.flac
Size: 7014465 Hash: C13A343B7CCE88ACA953F16051A0BD39 Accuracy: -m0
Conclusion: CDDA 100%
Signature: F5665FC98842B2A5EA4331A400816C11DE6CE2F9
FILE: 05 - Heimta Thurs.flac
Size: 25484595 Hash: 4CAADF153E8A4A62BA76B6C5481E467E Accuracy: -m0
Conclusion: CDDA 100%
Signature: CECE6BE3ADDC5B1C93EA74CC944A7F005434AF47
FILE: 04 - Loyndomsriss.flac
Size: 17820707 Hash: 4BD02525F94D054BFF6BD2D8C42148C9 Accuracy: -m0
Conclusion: CDDA 100%
Signature: CE114C39A763F073BB672C37E1EC14C2174D6E6C
FILE: 03 - Bjarkan.flac
Size: 37747836 Hash: 2DC49AEB541773BEEC73D7209EDEFC4F Accuracy: -m0
Conclusion: CDDA 100%
Signature: 9FCCDA67677316FA5938584A8CC06FFEA6387A7F
FILE: 02 - Hagal.flac
Size: 50707052 Hash: 5529C823255C2C440200BE9DC05AD1FE Accuracy: -m0
Conclusion: CDDA 100%
Signature: 7774FBB0A75B87465CD5A938CD686B955BA51E28
FILE: 01 - Ar Var Alda.flac
Size: 12085649 Hash: F523438E0BCA4B61C6D627219DC2FB25 Accuracy: -m0
Conclusion: CDDA 100%
Signature: C70AA864A52BA8E42FD9F8A457A07AB4DE59AC46

Время раздачи: с 10:00 до 22:00

[NNM-Club.ru]_Wardruna - Runaljod - gap var Ginnunga.torrent


26 Май 2012 18:05:30

Оценка пользователей
более 4.8 баллов из 5!"> (Голосов: 22 )

Оформление проверено модератором 28 Май 2012 12:12:08

Стаж: 9 лет 3 мес.

Скачал(а): 3745 раз(а)
Поблагодарил(а): 3878 раз(а)"> 100%

Подарок любимому форуму и всем кому близок скандинавский шаманизм
ОЧЕНЬ сильная музыка!

Стаж: 7 лет 10 мес.

Скачал(а): 1513 раз(а)
Поблагодарил(а): 115 раз(а)"> 7.6%

BobrovDE
Благодарю. Еще не подскажешь подобное?

Стаж: 6 лет 2 мес.

Скачал(а): 87 раз(а)
Поблагодарил(а): 28 раз(а)"> 32.18%

BobrovDE
Благодарю. Еще не подскажешь подобное?


Присоединяюсь к вопросу

Стаж: 7 лет 10 мес.

Скачал(а): 1513 раз(а)
Поблагодарил(а): 115 раз(а)"> 7.6%

01qwerty10
За время поисков нашёл только вот эту греческую группу daemonia nymphe альбом Psychostasia. Временами сильно похоже

Wardruna скачать торрент flac:

  • скачать
  • скачать
  • Другие статьи

    Nordic, Folk) LP 24

    Wardruna - Runaljod - Gap Var Ginnunga, Runaljod – Yggdrasil

    #777 Жанр. Nordic, Folk
    Носитель. LP
    Год выпуска. 2009 [2014], 2013 [2015]
    Лейбл. Indie Recordings
    Страна-производитель. Norway
    Аудио кодек. FLAC
    Тип рипа. image+.cue
    Формат записи. 24/192
    Формат раздачи. 24/192
    Треклист :
    Runaljod - Gap Var Ginnunga
    A1 Ár Var Alda
    A2 Hagal
    A3 Bjarkan
    B4 Løyndomsriss
    B5 Heimta Thurs
    B6 Thurs
    C7 Jara
    C8 Laukr
    C9 Kauna
    D10 Algir - Stien Klarnar
    D11 Algir - Tognatale
    D12 Dagr

    Runaljod – Yggdrasil
    A1 Rotlaust Tre Fell
    A2 Fehu
    A3 NaudiR
    B1 EhwaR
    B2 AnsuR
    B3 IwaR
    C1 IngwaR
    C2 Gibu
    C3 Solringen
    D1 Sowelu
    D2 Helvegen

    Доп. информация :
    Раздача подготовлена при финансовой поддержке за что ему огромная благодарность!
    Данный материал предоставлен исключительно для ознакомления. Рекомендую приобрести лицензионную продукцию.
    #777

    Добавлен [27 авг 2016, 11:08]


    Скачать торрент
    [ Размер 14.44 КБ / Просмотров 4 ]

    Нет (DHT включён)

    02 сен 2016, 00:08

    27 авг 2016, 12:48

    06 фев 2016, 17:15

    27 авг 2016, 12:46

    31 авг 2016, 18:59

    Сейчас этот форум просматривают: нет зарегистрированных пользователей и гости: 1

    Вы не можете начинать темы
    Вы не можете отвечать на сообщения
    Вы не можете редактировать свои сообщения
    Вы не можете удалять свои сообщения
    Вы не можете добавлять вложения

    !ВНИМАНИЕ!
    Ресурс не предоставляет электронные версии произведений, а занимается лишь коллекционированием и каталогизацией ссылок, присылаемых и публикуемых на форуме нашими читателями. Если вы являетесь правообладателем какого-либо представленного материала и не желаете чтобы ссылка на него находилась в нашем каталоге, свяжитесь с нами и мы незамедлительно удалим её. Файлы для обмена на трекере предоставлены пользователями сайта, и администрация не несёт ответственности за их содержание. Просьба не заливать файлы, защищенные авторскими правами, а также файлы нелегального содержания!

    Wardruna - Runaljod - gap var Ginnunga (2009) FLAC, Lossless - Neofolk

    Wardruna - Runaljod - gap var Ginnunga (2009)

    Год: 2009
    Жанр: Neofolk / Ambient
    Продолжительность: 00:51:56

    Кодек: FLAC
    Битрейт аудио: "Lossless"

    Трек лист:
    1. Ar Var Alda 2:19
    2. Hagal 7:40
    3. Bjarkan 5:53
    4. Loyndomsriss 3:05
    5. Heimta Thurs 4:18
    6. Thurs 1:15
    7. Jara 5:01
    8. Laukr 4:05
    9. Kauna 2:34
    10. Algir - Stien Klarnar 4:17
    11. Algir - Tognatale 5:39
    12. Dagr 5:38

    релиз What.CD от fuzzfolk. Обложки взяты из инета.

    Превью: myspace. lastfm
    Состав группы:
    Kvitrafn (Einar Selvik) - Vocals, All Instruments, Samples, Lyrics (Gorgoroth)
    Gaahl (Kristian Eivind Espedal) - Vocals (Gorgoroth)
    Lindy Fay Hella - Vocals
    Hallvard Kleiveland - Hardanger Fiddle


    Exact Audio Copy V0.99 prebeta 5 from 4. May 2009
    EAC extraction logfile from 5. October 2009, 17:59
    Wardruna / Runaljod - Gap Var Ginnunga
    Used drive : SAMSUNG CDRW/DVD SN-324S Adapter: 1 ID: 0
    Read mode : Secure
    Utilize accurate stream : Yes
    Defeat audio cache : Yes
    Make use of C2 pointers : No
    Read offset correction : 6
    Overread into Lead-In and Lead-Out : No
    Fill up missing offset samples with silence : Yes
    Delete leading and trailing silent blocks : No
    Null samples used in CRC calculations : Yes
    Used interface : Installed external ASPI interface
    Gap handling : Appended to previous track
    Used output format : User Defined Encoder
    Selected bitrate : 768 kBit/s
    Quality : High
    Add ID3 tag : No
    Command line compressor : C:\Programfiler\Exact Audio Copy\FLAC\FLAC.EXE
    Additional command line options : -V -8 -T "artist=%a" -T "title=%t" -T "album=%g" -T "date=%y" -T "tracknumber=%n" -T "genre=%m" %s
    TOC of the extracted CD
    Track | Start | Length | Start sector | End sector
    ---------------------------------------------------------
    1 | 0:00.00 | 2:19.24 | 0 | 10448
    2 | 2:19.24 | 7:40.03 | 10449 | 44951
    3 | 9:59.27 | 5:53.15 | 44952 | 71441
    4 | 15:52.42 | 3:15.00 | 71442 | 86066
    5 | 19:07.42 | 4:18.30 | 86067 | 105446
    6 | 23:25.72 | 1:15.62 | 105447 | 111133
    7 | 24:41.59 | 5:01.58 | 111134 | 133766
    8 | 29:43.42 | 4:05.20 | 133767 | 152161
    9 | 33:48.62 | 2:34.10 | 152162 | 163721
    10 | 36:22.72 | 4:17.22 | 163722 | 183018
    11 | 40:40.19 | 5:39.23 | 183019 | 208466
    12 | 46:19.42 | 5:38.15 | 208467 | 233831
    Track 1
    Filename C:\EAC rips\Wardruna - 2009 - Runaljod - Gap Var Ginnunga\01 - Ár Var Alda.wav
    Pre-gap length 0:00:02.00
    Peak level 99.8 %
    Track quality 100.0 %
    Test CRC 33A4575F
    Copy CRC 33A4575F
    Accurately ripped (confidence 1) [7101618F]
    Copy OK
    Track 2
    Filename C:\EAC rips\Wardruna - 2009 - Runaljod - Gap Var Ginnunga\02 - Hagal.wav
    Peak level 99.8 %
    Track quality 100.0 %
    Test CRC BCDB8A66
    Copy CRC BCDB8A66
    Accurately ripped (confidence 1) [DFD86DA0]
    Copy OK
    Track 3
    Filename C:\EAC rips\Wardruna - 2009 - Runaljod - Gap Var Ginnunga\03 - Bjarkan.wav
    Peak level 99.8 %
    Track quality 100.0 %
    Test CRC 890B5418
    Copy CRC 890B5418
    Accurately ripped (confidence 1) [6124F816]
    Copy OK
    Track 4
    Filename C:\EAC rips\Wardruna - 2009 - Runaljod - Gap Var Ginnunga\04 - Løyndomsriss.wav
    Peak level 99.8 %
    Track quality 100.0 %
    Test CRC 08B1A928
    Copy CRC 08B1A928
    Accurately ripped (confidence 1) [F1760927]
    Copy OK
    Track 5
    Filename C:\EAC rips\Wardruna - 2009 - Runaljod - Gap Var Ginnunga\05 - Heimta Thurs.wav
    Peak level 99.8 %
    Track quality 100.0 %
    Test CRC 00023ED7
    Copy CRC 00023ED7
    Accurately ripped (confidence 1) [08FDC165]
    Copy OK
    Track 6
    Filename C:\EAC rips\Wardruna - 2009 - Runaljod - Gap Var Ginnunga\06 - Thurs.wav
    Peak level 99.8 %
    Track quality 100.0 %
    Test CRC F408BA19
    Copy CRC F408BA19
    Accurately ripped (confidence 1) [B7D8A702]
    Copy OK
    Track 7
    Filename C:\EAC rips\Wardruna - 2009 - Runaljod - Gap Var Ginnunga\07 - Jara.wav
    Peak level 99.8 %
    Track quality 100.0 %
    Test CRC 51E4E51D
    Copy CRC 51E4E51D
    Accurately ripped (confidence 1) [CB782E27]
    Copy OK
    Track 8
    Filename C:\EAC rips\Wardruna - 2009 - Runaljod - Gap Var Ginnunga\08 - Laukr.wav
    Peak level 99.8 %
    Track quality 100.0 %
    Test CRC 71E2F8B1
    Copy CRC 71E2F8B1
    Accurately ripped (confidence 1) [EC1900D8]
    Copy OK
    Track 9
    Filename C:\EAC rips\Wardruna - 2009 - Runaljod - Gap Var Ginnunga\09 - Kauna.wav
    Peak level 99.8 %
    Track quality 100.0 %
    Test CRC EB9B9DD6
    Copy CRC EB9B9DD6
    Accurately ripped (confidence 1) [BCDBF668]
    Copy OK
    Track 10
    Filename C:\EAC rips\Wardruna - 2009 - Runaljod - Gap Var Ginnunga\10 - Algir - Stien Klarnar.wav
    Peak level 99.8 %
    Track quality 100.0 %
    Test CRC 45AC3AEE
    Copy CRC 45AC3AEE
    Accurately ripped (confidence 1) [6D3BB112]
    Copy OK
    Track 11
    Filename C:\EAC rips\Wardruna - 2009 - Runaljod - Gap Var Ginnunga\11 - Algir - Tognatale.wav
    Peak level 99.8 %
    Track quality 100.0 %
    Test CRC 0847AFC1
    Copy CRC 0847AFC1
    Accurately ripped (confidence 1) [2BD57525]
    Copy OK
    Track 12
    Filename C:\EAC rips\Wardruna - 2009 - Runaljod - Gap Var Ginnunga\12 - Dagr.wav
    Peak level 99.8 %
    Track quality 100.0 %
    Test CRC FF5F51D5
    Copy CRC FF5F51D5
    Accurately ripped (confidence 1) [09695C6A]
    Copy OK
    All tracks accurately ripped
    No errors occurred
    End of status report

    DON'T MODIFY THIS FILE

    PERFORMER: auCDtect Task Manager, ver. 1.5.1RC6 build 1.5.1.7
    Copyright (c) 2008-2010 y-soft. All rights reserved
    http://y-soft.org

    ANALYZER: auCDtect: CD records authenticity detector, version 0.8.2
    Copyright (c) 2004 Oleg Berngardt. All rights reserved.
    Copyright (c) 2004 Alexander Djourik. All rights reserved.

    FILE: 12 - Dagr.flac
    Size: 33970906 Hash: 36995C37DDF97E509B7175EC170719DA Accuracy: -m0
    Conclusion: CDDA 100%
    Signature: A7EE9C2167C0FBFABEDFE6F46AEA9BFE9050D3DD
    FILE: 11 - Algir - Tognatale.flac
    Size: 35771735 Hash: D42BD6CFB6FBD55B4B5DEF1E36184DAF Accuracy: -m0
    Conclusion: CDDA 100%
    Signature: 889949F2221890C02A398EC330349619D600A032
    FILE: 10 - Algir - Stien Klarnar.flac
    Size: 27728242 Hash: BE824DE500D166D113422954B34D4DBE Accuracy: -m0
    Conclusion: CDDA 100%
    Signature: 86E2AA5AEE29C8EECCBD56A62B5BDC0EC66CCBA1
    FILE: 09 - Kauna.flac
    Size: 15652950 Hash: BAD9987F155E5C0A044CC43CD3720A17 Accuracy: -m0
    Conclusion: CDDA 100%
    Signature: 90A1DA7B11392F935CFAEF315CB91DBCFE1F2885
    FILE: 08 - Laukr.flac
    Size: 25874603 Hash: 0E70E89B4658575ADBF6782D34AB7CC2 Accuracy: -m0
    Conclusion: CDDA 100%
    Signature: 0B9D5AECC231B7F8EC87C168CC889064CF513B09
    FILE: 07 - Jara.flac
    Size: 33338921 Hash: B78CB74830893CD5E1657F113678AF6D Accuracy: -m0
    Conclusion: CDDA 100%
    Signature: EB1BCB6EF2E42A3A06A1C10262258C00B0AE8845
    FILE: 06 - Thurs.flac
    Size: 7014465 Hash: C13A343B7CCE88ACA953F16051A0BD39 Accuracy: -m0
    Conclusion: CDDA 100%
    Signature: F5665FC98842B2A5EA4331A400816C11DE6CE2F9
    FILE: 05 - Heimta Thurs.flac
    Size: 25484595 Hash: 4CAADF153E8A4A62BA76B6C5481E467E Accuracy: -m0
    Conclusion: CDDA 100%
    Signature: CECE6BE3ADDC5B1C93EA74CC944A7F005434AF47
    FILE: 04 - Loyndomsriss.flac
    Size: 17820707 Hash: 4BD02525F94D054BFF6BD2D8C42148C9 Accuracy: -m0
    Conclusion: CDDA 100%
    Signature: CE114C39A763F073BB672C37E1EC14C2174D6E6C
    FILE: 03 - Bjarkan.flac
    Size: 37747836 Hash: 2DC49AEB541773BEEC73D7209EDEFC4F Accuracy: -m0
    Conclusion: CDDA 100%
    Signature: 9FCCDA67677316FA5938584A8CC06FFEA6387A7F
    FILE: 02 - Hagal.flac
    Size: 50707052 Hash: 5529C823255C2C440200BE9DC05AD1FE Accuracy: -m0
    Conclusion: CDDA 100%
    Signature: 7774FBB0A75B87465CD5A938CD686B955BA51E28
    FILE: 01 - Ar Var Alda.flac
    Size: 12085649 Hash: F523438E0BCA4B61C6D627219DC2FB25 Accuracy: -m0
    Conclusion: CDDA 100%
    Signature: C70AA864A52BA8E42FD9F8A457A07AB4DE59AC46

    Время раздачи: с 10:00 до 22:00

    [Non Stop Torrent Tracker.ru]_Wardruna - Runaljod - gap var Ginnunga.torrent

    26 Май 2012 18:05:30

    Оценка пользователей
    более 4.8 баллов из 5!"> (Голосов: 22 )

    Оформление проверено модератором 28 Май 2012 12:12:08

    Скачал(а): 3716 раз(а)
    Поблагодарил(а): 3841 раз(а)"> 100%

    Подарок любимому форуму и всем кому близок скандинавский шаманизм
    ОЧЕНЬ сильная музыка!

    Стаж: 7 лет 7 мес.

    Скачал(а): 1496 раз(а)
    Поблагодарил(а): 115 раз(а)"> 7.69%

    BobrovDE
    Благодарю. Еще не подскажешь подобное?

    Стаж: 5 лет 11 мес.

    Скачал(а): 81 раз(а)
    Поблагодарил(а): 28 раз(а)"> 34.57%

    BobrovDE
    Благодарю. Еще не подскажешь подобное?


    Присоединяюсь к вопросу

    Стаж: 7 лет 7 мес.

    Скачал(а): 1496 раз(а)
    Поблагодарил(а): 115 раз(а)"> 7.69%

    01qwerty10
    За время поисков нашёл только вот эту греческую группу daemonia nymphe альбом Psychostasia. Временами сильно похоже

    Neofolk, Ambient) CD Wardruna - Discography - 2009-2016, (3 CDs), FLAC (image


    Discography

    Жанр. Neofolk, Ambient Страна-производитель диска. Austria, Germany
    Год издания. 2009-2016 Страна. Norway
    Аудиокодек. FLAC (*.flac) Тип рипа. image+.cue
    Битрейт аудио. lossless Источник (релизер). My CDs
    Наличие сканов в содержимом раздачи. да

    2009: Runaljod - gap var Ginnunga

    Издатель (лейбл). Indie Recordings
    Номер по каталогу. INDIE024CD
    Продолжительность. 51:57
    01. Ar var alda 02:19
    02. Hagal 07:40
    03. Bjarkan 05:53
    04. Loyndomsriss 03:15
    05. Heimta Thurs 04:18
    06. Thurs 01:16
    07. Jara 05:02
    08. Laukr 04:05
    09. Kauna 02:34
    10. Algir - Stien klarnar 04:17
    11. Algir - Tognatale 05:39
    12. Dagr 05:38

    Лог создания рипа

    Exact Audio Copy V1.1 from 23. June 2015
    EAC extraction logfile from 21. October 2016, 21:12
    Wardruna / Runaljod - Gap Var Ginnunga
    Used drive. HP DVD Writer 1170d Adapter: 1 ID: 1
    Read mode. SecureUtilize accurate stream. YesDefeat audio cache. YesMake use of C2 pointers. No
    Read offset correction. 6Overread into Lead-In and Lead-Out. NoFill up missing offset samples with silence. YesDelete leading and trailing silent blocks. NoNull samples used in CRC calculations. YesUsed interface. Native Win32 interface for Win NT & 2000
    Used output format. User Defined EncoderSelected bitrate. 1024 kBit/sQuality. LowAdd ID3 tag. NoCommand line compressor. C:\Program Files (x86)\Exact Audio Copy\FLAC\FLAC.EXEAdditional command line options. -V -8 -T "Date=%year%" -T "Genre=%genre%" -T"COMMENT=Ripped by Ungern666" -8 -V %source%
    TOC of the extracted CD
    Track | Start | Length | Start sector | End sector --------------------------------------------------------- 1 | 0:00.00 | 2:19.24 | 0 | 10448 2 | 2:19.24 | 7:40.03 | 10449 | 44951 3 | 9:59.27 | 5:53.15 | 44952 | 71441 4 | 15:52.42 | 3:15.00 | 71442 | 86066 5 | 19:07.42 | 4:18.30 | 86067 | 105446 6 | 23:25.72 | 1:15.62 | 105447 | 111133 7 | 24:41.59 | 5:01.58 | 111134 | 133766 8 | 29:43.42 | 4:05.20 | 133767 | 152161 9 | 33:48.62 | 2:34.10 | 152162 | 163721 10 | 36:22.72 | 4:17.22 | 163722 | 183018 11 | 40:40.19 | 5:39.23 | 183019 | 208466 12 | 46:19.42 | 5:38.15 | 208467 | 233831
    Range status and errors
    Selected range
    Filename C:\EAC\Ungern666\Wardruna - Runaljod - Gap Var Ginnunga.wav
    Peak level 99.8 % Extraction speed 6.9 X Range quality 100.0 % Test CRC 9C960C9E Copy CRC 9C960C9E Copy OK
    No errors occurred
    AccurateRip summary
    Track 1 accurately ripped (confidence 21) [27078D40] (AR v2)Track 2 accurately ripped (confidence 21) [FF0A6986] (AR v2)Track 3 accurately ripped (confidence 21) [EDCEDA9A] (AR v2)Track 4 accurately ripped (confidence 21) [55468C92] (AR v2)Track 5 accurately ripped (confidence 21) [52CA70BA] (AR v2)Track 6 accurately ripped (confidence 21) [944E2B7C] (AR v2)Track 7 accurately ripped (confidence 21) [B4D2DBF1] (AR v2)Track 8 accurately ripped (confidence 21) [07298E93] (AR v2)Track 9 accurately ripped (confidence 21) [56007AC5] (AR v2)Track 10 accurately ripped (confidence 21) [7F467843] (AR v2)Track 11 accurately ripped (confidence 21) [0F643F52] (AR v2)Track 12 accurately ripped (confidence 21) [4D143A58] (AR v2)
    All tracks accurately ripped
    End of status report
    ---- CUETools DB Plugin V2.1.6
    [CTDB TOCID: ILHRfJ75MZ2_db.fUNR__keTOb4-] foundSubmit result: ILHRfJ75MZ2_db.fUNR__keTOb4- has been confirmedTrack | CTDB Status 1 | (88/89) Accurately ripped 2 | (88/89) Accurately ripped 3 | (88/89) Accurately ripped 4 | (88/89) Accurately ripped 5 | (88/89) Accurately ripped 6 | (88/89) Accurately ripped 7 | (88/89) Accurately ripped 8 | (88/89) Accurately ripped 9 | (88/89) Accurately ripped 10 | (88/89) Accurately ripped 11 | (88/89) Accurately ripped 12 | (88/89) Accurately ripped
    ==== Log checksum 52D46734071A92305F7C8942209190983E4020EC93BA60F288B1D4377D7E0515 ====

    2013: Runaljod – Yggdrasil

    Издатель (лейбл). Indie Recordings
    Номер по каталогу. INDIE104CD
    Продолжительность. 66:15
    01. Rotlaust tre fell 04:11
    02. Fehu 06:43
    03. NaudiR 06:31
    04. EhwaR 04:10
    05. AnsuR 06:31
    06. IwaR 05:42
    07. IngwaR 05:28
    08. Gibu 05:30
    09. Solringen 06:30
    10. Sowelu 07:40
    11. Helvegen 07:11

    Лог создания рипа

    Exact Audio Copy V1.1 from 23. June 2015
    EAC extraction logfile from 21. October 2016, 21:36
    Wardruna / Runaljod - Yggdrasil
    Used drive. HP DVD Writer 1170d Adapter: 1 ID: 1
    Read mode. SecureUtilize accurate stream. YesDefeat audio cache. YesMake use of C2 pointers. No
    Read offset correction. 6Overread into Lead-In and Lead-Out. NoFill up missing offset samples with silence. YesDelete leading and trailing silent blocks. NoNull samples used in CRC calculations. YesUsed interface. Native Win32 interface for Win NT & 2000
    Used output format. User Defined EncoderSelected bitrate. 1024 kBit/sQuality. LowAdd ID3 tag. NoCommand line compressor. C:\Program Files (x86)\Exact Audio Copy\FLAC\FLAC.EXEAdditional command line options. -V -8 -T "Date=%year%" -T "Genre=%genre%" -T"COMMENT=Ripped by Ungern666" -8 -V %source%
    TOC of the extracted CD
    Track | Start | Length | Start sector | End sector --------------------------------------------------------- 1 | 0:00.00 | 4:11.49 | 0 | 18873 2 | 4:11.49 | 6:45.21 | 18874 | 49269 3 | 10:56.70 | 6:31.43 | 49270 | 78637 4 | 17:28.38 | 4:10.67 | 78638 | 97454 5 | 21:39.30 | 6:31.60 | 97455 | 126839 6 | 28:11.15 | 5:42.43 | 126840 | 152532 7 | 33:53.58 | 5:28.65 | 152533 | 177197 8 | 39:22.48 | 5:30.21 | 177198 | 201968 9 | 44:52.69 | 6:30.28 | 201969 | 231246 10 | 51:23.22 | 7:40.05 | 231247 | 265751 11 | 59:03.27 | 7:11.66 | 265752 | 298142
    Range status and errors
    Selected range
    Filename C:\EAC\Ungern666\Wardruna - Runaljod - Yggdrasil.wav
    Peak level 98.4 % Extraction speed 6.3 X Range quality 100.0 % Test CRC F3F4DA9C Copy CRC F3F4DA9C Copy OK
    No errors occurred
    AccurateRip summary
    Track 1 accurately ripped (confidence 9) [C8B0E9BD] (AR v2)Track 2 accurately ripped (confidence 9) [EDEA8174] (AR v2)Track 3 accurately ripped (confidence 9) [290A5E9F] (AR v2)Track 4 accurately ripped (confidence 9) [1903C226] (AR v2)Track 5 accurately ripped (confidence 9) [9B0036D2] (AR v2)Track 6 accurately ripped (confidence 9) [9D630C72] (AR v2)Track 7 accurately ripped (confidence 9) [88926460] (AR v2)Track 8 accurately ripped (confidence 9) [EF8308B4] (AR v2)Track 9 accurately ripped (confidence 9) [6F77807A] (AR v2)Track 10 accurately ripped (confidence 9) [399CEFEB] (AR v2)Track 11 accurately ripped (confidence 9) [75F43AA5] (AR v2)
    All tracks accurately ripped
    End of status report
    ---- CUETools DB Plugin V2.1.6
    [CTDB TOCID: UduGHAj9MfcOAbyEb9XuebzQRIs-] foundSubmit result: UduGHAj9MfcOAbyEb9XuebzQRIs- has been confirmedTrack | CTDB Status 1 | (93/93) Accurately ripped 2 | (92/93) Accurately ripped 3 | (93/93) Accurately ripped 4 | (93/93) Accurately ripped 5 | (93/93) Accurately ripped 6 | (93/93) Accurately ripped 7 | (93/93) Accurately ripped 8 | (93/93) Accurately ripped 9 | (92/93) Accurately ripped 10 | (93/93) Accurately ripped 11 | (90/93) Accurately ripped
    ==== Log checksum A5DC25E5273299243305C6A28DAC35AD1CC1103EA6B1A556B822A57DA64634C0 ====

    2016: Runaljod - Ragnarok

    Издатель (лейбл). ByNorse
    Номер по каталогу. BMN002
    Продолжительность. 58:34
    01. Tyr 06:30
    02. UruR 10:11
    03. Isa 07:13
    04. MannaR - Drivande 04:09
    05. MannaR - Liv 05:13
    06. Raido 04:46
    07. Pertho 02:18
    08. Odal 05:29
    09. Wunjo 05:20
    10. Runaljod 07:36

    Лог создания рипа

    Exact Audio Copy V1.1 from 23. June 2015
    EAC extraction logfile from 21. October 2016, 22:05
    Wardruna / Runaljod - Ragnarok
    Used drive. HP DVD Writer 1170d Adapter: 1 ID: 1
    Read mode. SecureUtilize accurate stream. YesDefeat audio cache. YesMake use of C2 pointers. No
    Read offset correction. 6Overread into Lead-In and Lead-Out. NoFill up missing offset samples with silence. YesDelete leading and trailing silent blocks. NoNull samples used in CRC calculations. YesUsed interface. Native Win32 interface for Win NT & 2000
    Used output format. User Defined EncoderSelected bitrate. 1024 kBit/sQuality. LowAdd ID3 tag. NoCommand line compressor. C:\Program Files (x86)\Exact Audio Copy\FLAC\FLAC.EXEAdditional command line options. -V -8 -T "Date=%year%" -T "Genre=%genre%" -T"COMMENT=Ripped by Ungern666" -8 -V %source%
    TOC of the extracted CD
    Track | Start | Length | Start sector | End sector --------------------------------------------------------- 1 | 0:00.00 | 6:28.51 | 0 | 29150 2 | 6:28.51 | 10:09.50 | 29151 | 74875 3 | 16:38.26 | 7:11.69 | 74876 | 107269 4 | 23:50.20 | 4:07.58 | 107270 | 125852 5 | 27:58.03 | 5:11.55 | 125853 | 149232 6 | 33:09.58 | 4:45.04 | 149233 | 170611 7 | 37:54.62 | 2:16.40 | 170612 | 180851 8 | 40:11.27 | 5:29.59 | 180852 | 205585 9 | 45:41.11 | 5:18.27 | 205586 | 229462 10 | 50:59.38 | 7:34.37 | 229463 | 263549
    Range status and errors
    Selected range
    Filename C:\EAC\Ungern666\Wardruna - Runaljod - Ragnarok.wav
    Peak level 98.8 % Extraction speed 6.1 X Range quality 100.0 % Test CRC 3D6895E9 Copy CRC 3D6895E9 Copy OK
    No errors occurred
    AccurateRip summary
    Track 1 not present in databaseTrack 2 not present in databaseTrack 3 not present in databaseTrack 4 not present in databaseTrack 5 not present in databaseTrack 6 not present in databaseTrack 7 not present in databaseTrack 8 not present in databaseTrack 9 not present in databaseTrack 10 not present in database
    None of the tracks are present in the AccurateRip database
    End of status report
    ---- CUETools DB Plugin V2.1.6
    [CTDB TOCID: ffB9xKiWN.mVoYsZERHAyTDI97Q-] foundSubmit result: ffB9xKiWN.mVoYsZERHAyTDI97Q- has been confirmedTrack | CTDB Status 1 | (1/1) Accurately ripped 2 | (1/1) Accurately ripped 3 | (1/1) Accurately ripped 4 | (1/1) Accurately ripped 5 | (1/1) Accurately ripped 6 | (1/1) Accurately ripped 7 | (1/1) Accurately ripped 8 | (1/1) Accurately ripped 9 | (1/1) Accurately ripped 10 | (1/1) Accurately ripped
    ==== Log checksum 464E2CE42F6D5B650729FAF822D704918D24010CE02FDFC70D8716A93F8B9D48 ====

    Ivar Bjornson & Einar Selvik's Skuggsja
    Vikings - Music From The TV Series - Материал предназначен для ознакомления!